[MagicStar] 想说我爱你 / 愛してるって、言いたい EP02 [WEBDL] [1080p] [AMZN]【生】

最后更新:2024-04-10 02:02 出处:网络

簡介: 
HD 1080p from Prime Video.
Use CBR bitrate mode.
We are planning to upload all Prime Video Japan Dramas and Movies, we need your Support!
Support Us Ali (Zhifubao / QR code): https://i.ibb.co/FWV2ggm/1660626347125.png
PayPalMe: https://www.paypal.com/paypalme/sakuragikenji
ETH (ERC20): 0xea3286E176099E8C9aBaf25A0edf231374C04E89
USDT (BTC / OMNI): 1Lemw6fu5vG3NdvWGxDxsPX7T7yUb3rNzu

[MagicStar] 想说我爱你 / 愛してるって、言いたい EP02 [WEBDL] [1080p] [AMZN]【生】


[MagicStar] 想说我爱你 / 愛してるって、言いたい EP02 [WEBDL] [1080p] [AMZN]【生】

General Unique ID : 70580564167116159285599862477402342804 (0x3519527BD68D6B9294D5E42AA35B0594) Complete name : Aishiterutte.Iitai.EP02.1080p.AMZN.WEB-DL.DDP2.0.H.264-MagicStar.mkv Format : Matroska Format version : Version 4 File size : 965 MiB Duration : 27 min 26 s Overall bit rate mode : Constant Overall bit rate : 4 916 kb/s Frame rate : 29.970 FPS Encoded date : 2024-03-18 20:18:56 UTC Writing application : mkvmerge v50.0.0 ('Awakenings') 64-bit Writing library : libebml v1.4.0 + libmatroska v1.6.2 Cover : Yes Attachments : cover.jpg Video ID : 1 Format : AVC Format/Info : Advanced Video Codec Format profile : High@L4 Format settings : CABAC / 4 Ref Frames Format settings, CABAC : Yes Format settings, Reference fra : 4 frames Codec ID : V_MPEG4/ISO/AVC Duration : 27 min 25 s Bit rate mode : Constant Bit rate : 4 687 kb/s Nominal bit rate : 10 000 kb/s Width : 1 920 pixels Height : 1 080 pixels Display aspect ratio : 16:9 Frame rate mode : Constant Frame rate : 29.970 (29970/1000) FPS Original frame rate : 29.970 (30000/1001) FPS Color space : YUV Chroma subsampling : 4:2:0 Bit depth : 8 bits Scan type : Progressive Bits/(Pixel*Frame) : 0.075 Stream size : 920 MiB (95%) Default : Yes Forced : No Color range : Limited Color primaries : BT.709 Transfer characteristics : BT.709 Matrix coefficients : BT.709 Audio ID : 2 Format : E-AC-3 Format/Info : Enhanced AC-3 Commercial name : Dolby Digital Plus Codec ID : A_EAC3 Duration : 27 min 26 s Bit rate mode : Constant Bit rate : 224 kb/s Channel(s) : 2 channels Channel layout : L R Sampling rate : 48.0 kHz Frame rate : 31.250 FPS (1536 SPF) Compression mode : Lossy Stream size : 44.0 MiB (5%) Title : 日本語 [オリジナル] Language : Japanese Service kind : Complete Main Default : Yes Forced : No
--> Magnet連接: magnet:?xt=urn:btih:O3LL37W3UC2HQBRWEX2JSWSVKVCOSTRX

Magnet連接typeII: magnet:?xt=urn:btih:76d6bdfedba0b478063625f4995a555544e94e37